国配电影社区

 找回密码
 会员注册

QQ登录

用QQ号快速登录该站

搜索
热搜: 悬疑
12下一页
返回列表 发新帖
查看: 13|回复: 11
打印

[建言献策] 建议发片贴提供较详尽的资源信息

金牌会员 Rank: 8Rank: 8
阅读权限:
100

79

帖子

205

积分

142

威望
资源量:1  Miner:5

 在线:343时 注册:19-9-13
跳转到指定楼层
楼主
hebeiyw 发表于 2019-9-15 15:51 回帖奖励
本帖最后由 hebeiyw 于 2019-9-15 15:51 编辑

      建议发片贴提供较详尽的资源信息,例如:资源容量、片长、视频格式及版本、分辨率、音频与字幕的格式、语言、种类等关键信息。相信有很多网友下了片子是在电视上看,购买后能否正常播放是他或她最关心的。得到以上信息即可一定程度上避免误下无法播放的资源。
    这些信息其实很容易得到,只需迅雷看看软件加载将媒体信息复制出即可。举手之劳即可让资源购买者一目了然,少遇麻烦。以下是一部片子的详细信息的例子:
Video
ID : 1
Format : AVC
Format/Info : Advanced Video Codec
Format profile : High@L5.1
Format settings : CABAC / 5 Ref Frames
Format settings, CABAC : Yes
Format settings, Reference frames : 5 frames
Codec ID : V_MPEG4/ISO/AVC
Duration : 2 h 7 min
Bit rate : 31.1 Mb/s
Width : 3 840 pixels
Height : 1 608 pixels
Display aspect ratio : 2.40:1
Frame rate mode : Constant
Frame rate : 23.976 (24000/1001) FPS
Color space : YUV
Chroma subsampling : 4:2:0
Bit depth : 8 bits
Scan type : Progressive
Bits/(Pixel*Frame) : 0.210
Stream size : 27.8 GiB (76%)
Title : Aladdin.2019.2160p.BluRay.x264.8bit.SDR.DTS-HD.MA.TrueHD.7.1.Atmos-SWTYBLZ
Writing library : x264 core 157 r2935 545de2f
Encoding settings : cabac=1 / ref=5 / deblock=1:-1:-1 / analyse=0x3:0x113 / me=umh / subme=10 / psy=1 / psy_rd=1.00:0.15 / mixed_ref=1 / me_range=48 / chroma_me=1 / trellis=2 / 8x8dct=1 / cqm=0 / deadzone=21,11 / fast_pskip=1 / chroma_qp_offset=-3 / threads=48 / lookahead_threads=4 / sliced_threads=0 / nr=0 / decimate=0 / interlaced=0 / bluray_compat=0 / constrained_intra=0 / bframes=3 / b_pyramid=2 / b_adapt=2 / b_bias=0 / direct=3 / weightb=1 / open_gop=0 / weightp=2 / keyint=250 / keyint_min=23 / scenecut=40 / intra_refresh=0 / rc_lookahead=50 / rc=crf / mbtree=1 / crf=18.0 / qcomp=0.60 / qpmin=0 / qpmax=69 / qpstep=4 / ip_ratio=1.40 / aq=1:1.00
Language : English
Default : Yes
Forced : No

Audio #1
ID : 2
Format : MLP FBA 16-ch
Format/Info : Meridian Lossless Packing FBA with 16-channel presentation
Commercial name : Dolby TrueHD with Dolby Atmos
Codec ID : A_TRUEHD
Duration : 2 h 7 min
Bit rate mode : Variable
Bit rate : 4 877 kb/s
Maximum bit rate : 9 060 kb/s
Channel(s) : 8 channels
Channel layout : L R C LFE Ls Rs Lb Rb
Sampling rate : 48.0 kHz
Frame rate : 1 200.000 FPS (40 SPF)
Compression mode : Lossless
Stream size : 4.36 GiB (12%)
Title : Aladdin.2019.2160p.BluRay.x264.8bit.SDR.DTS-HD.MA.TrueHD.7.1.Atmos-SWTYBLZ
Language : English
Default : Yes
Forced : No
Number of dynamic objects : 13
Bed channel count : 1 channel
Bed channel configuration : LFE

Audio #2
ID : 3
Format : DTS XLL
Format/Info : Digital Theater Systems
Commercial name : DTS-HD Master Audio
Codec ID : A_DTS
Duration : 2 h 7 min
Bit rate mode : Variable
Bit rate : 4 165 kb/s
Channel(s) : 8 channels
Channel layout : C L R LFE Lb Rb Lss Rss
Sampling rate : 48.0 kHz
Frame rate : 93.750 FPS (512 SPF)
Bit depth : 24 bits
Compression mode : Lossless
Stream size : 3.72 GiB (10%)
Title : Aladdin.2019.2160p.BluRay.x264.8bit.SDR.DTS-HD.MA.TrueHD.7.1.Atmos-SWTYBLZ
Language : English
Default : No
Forced : No

Audio #3
ID : 4
Format : AC-3
Format/Info : Audio Coding 3
Commercial name : Dolby Digital
Codec ID : A_AC3
Duration : 2 h 7 min
Bit rate mode : Constant
Bit rate : 640 kb/s
Channel(s) : 6 channels
Channel layout : L R C LFE Ls Rs
Sampling rate : 48.0 kHz
Frame rate : 31.250 FPS (1536 SPF)
Bit depth : 16 bits
Compression mode : Lossy
Stream size : 586 MiB (2%)
Title : Aladdin.2019.2160p.BluRay.x264.8bit.SDR.DTS-HD.MA.TrueHD.7.1.Atmos-SWTYBLZ
Language : English
Service kind : Complete Main
Default : No
Forced : No

Text #1
ID : 5
Format : UTF-8
Codec ID : S_TEXT/UTF8
Codec ID/Info : UTF-8 Plain Text
Duration : 2 h 7 min
Bit rate : 63 b/s
Count of elements : 2112
Stream size : 59.2 KiB (0%)
Title : English-SRT
Language : English
Default : Yes
Forced : No

Text #2
ID : 6
Format : PGS
Muxing mode : zlib
Codec ID : S_HDMV/PGS
Codec ID/Info : Picture based subtitle format used on BDs/HD-DVDs
Duration : 2 h 7 min
Bit rate : 46.8 kb/s
Count of elements : 4858
Stream size : 42.5 MiB (0%)
Title : English-PGS
Language : English
Default : No
Forced : No

Text #3
ID : 7
Format : PGS
Muxing mode : zlib
Codec ID : S_HDMV/PGS
Codec ID/Info : Picture based subtitle format used on BDs/HD-DVDs
Duration : 2 h 6 min
Bit rate : 36.1 kb/s
Count of elements : 3600
Stream size : 32.7 MiB (0%)
Title : French-PGS
Language : French
Default : No
Forced : No


主题曾于 2019-9-15 15:22  保存草稿

查看本帖 所有图文内容 与 下载 和 附件:

您需要先 登录     还没有帐号? 点此  注册会员    或者:

X

VIP会员等级2

Rank: 12Rank: 12Rank: 12

阅读权限:
160

4

帖子

580

积分

292

威望
  资源量: 14
Miner量: 20

活跃会员贴王之星资源大使荣誉VIP贡献大使资源大使

在线时间
2030 小时
注册时间
2018-5-4
2楼沙发
清凉一夏 发表于 2019-9-15 15:54

回帖额外奖励 +5

支持一下啊!
山羊上山 山碰山羊角;水牛下水 水没水牛腰
回复

特级元老

Rank: 16Rank: 16Rank: 16Rank: 16

阅读权限:
150

61

帖子

295

积分

178

威望
  资源量: 11
Miner量: 25
在线时间
2949 小时
注册时间
2018-9-18
3
ddiordna 发表于 2019-9-15 15:54

回帖额外奖励 +5

这个灰常赞成
我不知道你不知道我知道你知道他们不知道
回复

金牌会员 Rank: 8Rank: 8
阅读权限:
100

97

帖子

115

积分

106

威望
资源量:19  Miner:100

 在线:809时 注册:19-5-27
4
li001 发表于 2019-9-15 15:57
这样很好,明白他的信息,便于下载的取舍。
回复

特级元老

Rank: 16Rank: 16Rank: 16Rank: 16

阅读权限:
150

83

帖子

185

积分

134

威望
  资源量: 0
Miner量: 20
在线时间
1522 小时
注册时间
2019-4-21
5
曾阿牛 发表于 2019-9-15 17:20
严重支持!!!下载了很多没有注明详细配置信息的资源,发现并不是自己想要的,浪费的自己宝贵的时间和精力!
回复

特级元老

Rank: 16Rank: 16Rank: 16Rank: 16

阅读权限:
150

84

帖子

180

积分

132

威望
  资源量: 0
Miner量: 20
在线时间
1834 小时
注册时间
2018-1-11
6
jeene 发表于 2019-9-15 17:25
要支持
就是这个
回复

金牌会员 Rank: 8Rank: 8
阅读权限:
100

90

帖子

150

积分

120

威望
资源量:0  Miner:20

 在线:962时 注册:17-1-18
7
bawry 发表于 2019-9-15 20:16
确实是,蓝光版分辨率能最好标注一下~
回复

金牌会员 Rank: 8Rank: 8
阅读权限:
100

59

帖子

305

积分

182

威望
资源量:0  Miner:20

 在线:236时 注册:19-7-10
8
xzm888 发表于 2019-9-16 09:50
支持啊
回复

12下一页
返回列表 发新帖
您需要登录后才可以回帖 登录 | 会员注册

查看系统  本版 积分策略  

QQ|若遇网友内容无意涉及了你权益 联系Mail 邮:admin@ccvnn.com|热门词搜索统计记录|站点统计|违规名单|在线反馈或报错|手机版|国配社区CCVNN



Copyright 2000-2020 © Comsenz™ DZ V3.4®
GMT+8:2019-12-25 19:32:31   Processed 25 Query in 0.0536 second Cache On , GZip On.
社区内资源由译制配音网友爱好收集,严禁任何博眼球的不良或擦边类
发新主题应验证手机后, 交流从和谐大度、从容友爱,不要交流任何有害容。 不适反馈@
同时不要发一切上映中国产与引进片(也含要上映的引进片与一切tc尝鲜等,保护上映与国产)  
若有遇网友内容无意涉及了你任何合法权益请Email联系以便及时清除,邮件admin@ccvnn.com
快速回复 返回顶部 返回列表
汤姆高清影院-汤姆官网