国配电影社区

 找回密码
 会员注册

QQ登录

用QQ号快速登录该站

搜索
热搜: 悬疑
1234下一页
返回列表 发新帖
查看: 33|回复: 30
打印

[国英双语] 【双语】 毒液.2018.BD高清1080P.x265.10bit.国英双语.内录DD5.1.中英特效字幕.mkv【3.88G】-百度网盘

 

特级元老

Rank: 16Rank: 16Rank: 16Rank: 16

阅读权限:
150

29

帖子

455

积分

242

威望
  资源量: 14
Miner量: 25
在线时间
1804 小时
注册时间
2017-6-17
跳转到指定楼层
楼主
nanyang138 发表于 2018-12-19 20:20 回帖奖励
本帖最后由 nanyang138 于 2018-12-20 14:44 编辑

终极收藏版本,大小适中,好265编码,码率高,特效字幕和国英双语。秒杀一切版本,没有对比就不知道好坏!


【烧包出品,远鉴字幕】

   详细信息如下:
General
Unique ID                      : 78215477956405127250869343511453162181 (0x3AD7C0CBE34306C1A8A6790D91FCDAC5)
Complete name                  : H:\迅雷下载\毒液.2018.BD1080P.x265.10bit.DD5.1.国英双语.中英特效字幕.mkv
Format                         : Matroska
Format version                 : Version 4
File size                      : 3.89 GiB
Duration                       : 1 h 52 min
Overall bit rate               : 4 966 kb/s
Movie name                     : 毒液 HEVC
Encoded date                   : UTC 2018-12-19 11:32:04
Writing application            : mkvmerge v20.0.0 ('I Am The Sun') 64-bit
Writing library                : libebml v1.3.5 + libmatroska v1.4.8

Video
ID                             : 1
Format                         : HEVC
Format/Info                    : High Efficiency Video Coding
Format profile                 : Main 10@L4@Main
Codec ID                       : V_MPEGH/ISO/HEVC
Duration                       : 1 h 52 min
Bit rate                       : 3 685 kb/s
Width                          : 1 920 pixels
Height                         : 800 pixels
Display aspect ratio           : 2.40:1
Frame rate mode                : Constant
Frame rate                     : 23.976 (24000/1001) FPS
Color space                    : YUV
Chroma subsampling             : 4:2:0
Bit depth                      : 10 bits
Bits/(Pixel*Frame)             : 0.100
Stream size                    : 2.89 GiB (74%)
Title                          : HEVC
Language                       : English
Default                        : Yes
Forced                         : Yes
Color range                    : Limited
Color primaries                : BT.709
Transfer characteristics       : BT.709
Matrix coefficients            : BT.709

Audio #1
ID                             : 2
Format                         : AC-3
Format/Info                    : Audio Coding 3
Commercial name                : Dolby Digital
Codec ID                       : A_AC3
Duration                       : 1 h 52 min
Bit rate mode                  : Constant
Bit rate                       : 640 kb/s
Channel(s)                     : 6 channels
Channel layout                 : L R C LFE Ls Rs
Sampling rate                  : 48.0 kHz
Frame rate                     : 31.250 FPS (1536 SPF)
Bit depth                      : 16 bits
Compression mode               : Lossy
Stream size                    : 513 MiB (13%)
Title                          : 英语DD5.1
Language                       : English
Service kind                   : Complete Main
Default                        : Yes
Forced                         : Yes

Audio #2
ID                             : 3
Format                         : AC-3
Format/Info                    : Audio Coding 3
Commercial name                : Dolby Digital
Codec ID                       : A_AC3
Duration                       : 1 h 52 min
Bit rate mode                  : Constant
Bit rate                       : 640 kb/s
Channel(s)                     : 6 channels
Channel layout                 : L R C LFE Ls Rs
Sampling rate                  : 48.0 kHz
Frame rate                     : 31.250 FPS (1536 SPF)
Bit depth                      : 16 bits
Compression mode               : Lossy
Stream size                    : 513 MiB (13%)
Title                          : 内录国配DD5.1
Language                       : Multiple languages
Service kind                   : Complete Main
Default                        : No
Forced                         : No

Text
ID                             : 4
Format                         : ASS
Codec ID                       : S_TEXT/ASS
Codec ID/Info                  : Advanced Sub Station Alpha
Duration                       : 1 h 50 min
Bit rate                       : 179 b/s
Count of elements              : 1486
Compression mode               : Lossless
Stream size                    : 145 KiB (0%)
Title                          : ASS简英双字 远鉴字幕组
Language                       : Chinese
Default                        : No
Forced                         : No











音轨和字幕都非常不错,可以当终极搜藏版本来存。
备注: 下载后须解压后观看
下载地址:链接: https://pan.baidu.com/s/1s5tcNMxFA_yilwARwOxolA
备用链接: pan.baidu.com/#ID-48397
提取码:
亲爱的游客:查看本帖以下隐藏内容地址或密码 需先回复:点此快速回复     自动显隐藏 
[/sell]

查看本帖 所有图文内容 与 下载 和 附件:

您需要先 登录     还没有帐号? 点此  注册会员    或者:

X

本贴会员评分记录:

评分人数: 1金币 +2 收起 原因
cc美杜莎cc + 2

查看所有评分↑

只做自己喜欢的资源

特级元老

Rank: 16Rank: 16Rank: 16Rank: 16

阅读权限:
150

5

帖子

575

积分

290

威望
  资源量: 0
Miner量: 20
在线时间
2060 小时
注册时间
2018-8-2
2楼沙发
zhu_zhenyu001 发表于 2018-12-19 20:24

回帖额外奖励 +2

抢个来
回复

特级元老

Rank: 16Rank: 16Rank: 16Rank: 16

阅读权限:
150

61

帖子

295

积分

178

威望
  资源量: 11
Miner量: 25
在线时间
2949 小时
注册时间
2018-9-18
3
ddiordna 发表于 2018-12-19 20:24

回帖额外奖励 +2

265的不错啊,音轨和字幕好那就更赞了

评论列表:

谢谢分享啊啊  详细 回复↵     发表于: 2019-8-25 21:29
我不知道你不知道我知道你知道他们不知道
回复

特级元老

Rank: 16Rank: 16Rank: 16Rank: 16

阅读权限:
150

72

帖子

240

积分

156

威望
  资源量: 0
Miner量: 20
在线时间
1868 小时
注册时间
2017-8-7
4
abchb 发表于 2018-12-19 20:25
貌似可以看看,不错不错:%_
回复

高级会员 Rank: 5Rank: 5
阅读权限:
80

94

帖子

140

积分

51

威望
资源量:0  Miner:0

 在线:189时 注册:18-12-5
5
shenzhen11111 发表于 2018-12-19 20:36
希望像楼主分享
回复

特级元老

Rank: 16Rank: 16Rank: 16Rank: 16

阅读权限:
150

63

帖子

285

积分

174

威望
  资源量: 13
Miner量: 20
在线时间
2100 小时
注册时间
2017-9-29
6
嘟噜 发表于 2018-12-19 20:37
265的支持下,不知什么时候有3d版本

评论列表:

电脑电视屏幕看3D没意义  详细 回复↵     发表于: 2018-12-20 13:51
回复

特级元老

Rank: 16Rank: 16Rank: 16Rank: 16

阅读权限:
150

14

帖子

530

积分

272

威望
  资源量: 14
Miner量: 20

活跃会员贴王之星资源大使贡献大使

在线时间
6049 小时
注册时间
2017-3-26
7
darcy 发表于 2018-12-19 20:45
上午收藏的是这个版本:
[毒液.致命守护者].Venom.2018.BD.1080P.x265.10bit.DD5.1.英国双语.内封特效中英-4.16GB

特效字幕很赞~
君子求诸己, 小人求诸人。
❀ DO YOUR OWN QUEEN ❀
回复

金牌会员 Rank: 8Rank: 8
阅读权限:
100

70

帖子

250

积分

160

威望
资源量:2  Miner:20

 在线:822时 注册:18-9-25
8
极限刘 发表于 2018-12-19 21:19
给力啊 收下了

评论列表:

包你满意  详细 回复↵     发表于: 2018-12-20 13:50
回复

1234下一页
返回列表 发新帖
您需要登录后才可以回帖 登录 | 会员注册

查看系统  本版 积分策略  

QQ|若遇网友内容无意涉及了你权益 联系Mail 邮:admin@ccvnn.com|热门词搜索统计记录|站点统计|违规名单|在线反馈或报错|手机版|国配社区CCVNN



Copyright 2000-2020 © Comsenz™ DZ V3.4®
GMT+8:2019-12-25 19:21:25   Processed 29 Query in 0.0487 second Cache On , GZip On.
社区内资源由译制配音网友爱好收集,严禁任何博眼球的不良或擦边类
发新主题应验证手机后, 交流从和谐大度、从容友爱,不要交流任何有害容。 不适反馈@
同时不要发一切上映中国产与引进片(也含要上映的引进片与一切tc尝鲜等,保护上映与国产)  
若有遇网友内容无意涉及了你任何合法权益请Email联系以便及时清除,邮件admin@ccvnn.com
快速回复 返回顶部 返回列表
汤姆高清影院-汤姆官网